<?xml version="1.0" standalone="no"?><!DOCTYPE svg PUBLIC "-//W3C//DTD SVG 1.1//EN" "http://www.w3.org/Graphics/SVG/1.1/DTD/svg11.dtd" ><svg xmlns="http://www.w3.org/2000/svg"><metadata></metadata><defs><font id="colgate_readybold" horiz-adv-x="1269" ><font-face units-per-em="2048" ascent="1520" descent="-528" /><missing-glyph horiz-adv-x="460" /><glyph unicode="&#xfb01;" horiz-adv-x="1439" d="M139 0v1051q0 228 126 348.5t362 120.5q125 0 241 -29l-26 -225q-77 18 -191 18q-118 0 -171.5 -49.5t-53.5 -157.5v-22h410l-68 -242h-342v-813h-287zM1008 1229v264l290 76v-340h-290zM1010 0v1069h286v-1069h-286z" /><glyph unicode="&#xfb02;" horiz-adv-x="1458" d="M139 0v1051q0 228 126 348.5t362 120.5q125 0 241 -29l-26 -225q-77 18 -191 18q-118 0 -171.5 -49.5t-53.5 -157.5v-22h410l-68 -242h-342v-813h-287zM1028 0v1425l287 76v-1501h-287z" /><glyph unicode="&#xfb03;" horiz-adv-x="2299" d="M139 0v1051q0 228 126 348.5t362 120.5q125 0 241 -29l-26 -225q-77 18 -191 18q-118 0 -171.5 -49.5t-53.5 -157.5v-22h410l-68 -242h-342v-813h-287zM999 0v1051q0 228 126 348.5t362 120.5q126 0 242 -29l-27 -225q-76 18 -191 18q-118 0 -171.5 -49.5t-53.5 -157.5 v-22h410l-68 -242h-342v-813h-287zM1868 1229v264l291 76v-340h-291zM1870 0v1069h287v-1069h-287z" /><glyph unicode="&#xfb04;" horiz-adv-x="2318" d="M139 0v1051q0 228 126 348.5t362 120.5q125 0 241 -29l-26 -225q-77 18 -191 18q-118 0 -171.5 -49.5t-53.5 -157.5v-22h410l-68 -242h-342v-813h-287zM999 0v1051q0 228 126 348.5t362 120.5q126 0 242 -29l-27 -225q-76 18 -191 18q-118 0 -171.5 -49.5t-53.5 -157.5 v-22h410l-68 -242h-342v-813h-287zM1888 0v1425l287 76v-1501h-287z" /><glyph horiz-adv-x="0" /><glyph horiz-adv-x="0" /><glyph horiz-adv-x="682" /><glyph unicode="&#xd;" horiz-adv-x="460" /><glyph unicode=" "  horiz-adv-x="460" /><glyph unicode="&#x09;" horiz-adv-x="460" /><glyph unicode="&#xa0;" horiz-adv-x="460" /><glyph unicode="!" horiz-adv-x="593" d="M156 1403h282l-35 -993h-215zM172 0v207l250 53v-260h-250z" /><glyph unicode="&#x22;" horiz-adv-x="888" d="M115 1495l245 47l-28 -530h-189zM528 1495l246 47l-29 -530h-188z" /><glyph unicode="#" d="M-6 344v215h223l47 268h-194v215h231l57 342h246l-59 -342h270l57 342h246l-59 -342h229l-59 -215h-207l-45 -268h231l-59 -215h-209l-59 -344h-244l57 344h-268l-59 -344h-244l57 344h-186zM463 559h268l47 268h-270z" /><glyph unicode="$" d="M143 61l23 271q176 -85 364 -103v365q-366 101 -366 407q0 178 117 278.5t323 121.5v194h162v-192q158 -9 295 -43l-10 -256q-148 42 -285 51v-332q187 -52 279 -144.5t92 -256.5q0 -189 -116.5 -304t-328.5 -134v-177h-162v175q-217 12 -387 79zM467 1016q0 -47 30 -82 t107 -64v279q-137 -26 -137 -133zM692 238q142 37 142 161q0 53 -31.5 87t-110.5 61v-309z" /><glyph unicode="%" horiz-adv-x="1726" d="M66 1073q0 156 85 244t263 88t263 -88t85 -244q0 -157 -85.5 -247.5t-262.5 -90.5t-262.5 90.5t-85.5 247.5zM274 96l938 1340l226 -138l-940 -1349zM303 1069q0 -79 28 -112t83 -33t82.5 33t27.5 112t-27.5 113.5t-82.5 34.5t-83 -34.5t-28 -113.5zM965 317 q0 156 85 244t263 88t263 -88t85 -244q0 -157 -85.5 -247t-262.5 -90t-262.5 90t-85.5 247zM1202 313q0 -79 28 -112t83 -33t82.5 33t27.5 112t-27.5 113.5t-82.5 34.5t-83 -34.5t-28 -113.5z" /><glyph unicode="&#x26;" horiz-adv-x="1503" d="M45 365q0 239 281 378q-166 159 -166 320q0 147 121.5 244.5t326.5 97.5q193 0 305.5 -94t112.5 -236q0 -108 -68 -197t-206 -169l243 -238q88 131 148 299h282q-125 -286 -264 -463l33 -31q34 -34 104 -34h117l-69 -242h-136q-118 0 -202 80l-39 37q-193 -137 -441 -137 q-135 0 -242.5 42.5t-174 131t-66.5 211.5zM334 375q0 -72 60.5 -119t170.5 -47q131 0 240 67l-307 302q-164 -76 -164 -203zM434 1071q0 -47 33 -87t113 -107q99 48 140.5 91.5t41.5 102.5q0 60 -47 90.5t-119 30.5q-76 0 -119 -33.5t-43 -87.5z" /><glyph unicode="'" horiz-adv-x="475" d="M115 1495l245 47l-28 -530h-189z" /><glyph unicode="(" horiz-adv-x="839" d="M111 569q0 482 378 875h310q-412 -387 -412 -875q0 -487 412 -874h-310q-378 393 -378 874z" /><glyph unicode=")" horiz-adv-x="839" d="M41 -305q412 387 412 874q0 488 -412 875h309q379 -394 379 -875q0 -480 -379 -874h-309z" /><glyph unicode="*" horiz-adv-x="839" d="M29 1102l86 215l217 -117l-31 256h238l-31 -256l217 117l86 -215l-250 -66l193 -194l-193 -137l-141 227l-141 -227l-193 137l193 194z" /><glyph unicode="+" horiz-adv-x="1044" d="M96 422v225h305v297h234v-297h336l-64 -225h-272v-297h-234v297h-305z" /><glyph unicode="," horiz-adv-x="516" d="M29 -248q52 39 84 70t58.5 77.5t33.5 100.5h-109v258l310 59v-260q0 -129 -54 -223q-58 -99 -211 -199z" /><glyph unicode="-" horiz-adv-x="575" d="M41 424v219h518l-61 -219h-457z" /><glyph unicode="." horiz-adv-x="512" d="M111 0v244l290 61v-305h-290z" /><glyph unicode="/" horiz-adv-x="876" d="M45 -41l504 1468h282l-503 -1468h-283z" /><glyph unicode="0" d="M68 694q0 340 150 525.5t421 185.5q270 0 416.5 -184.5t146.5 -528.5q0 -347 -149.5 -529.5t-415.5 -182.5q-270 0 -419.5 186.5t-149.5 527.5zM369 694q0 -463 276 -463q135 0 195.5 105t60.5 344q0 249 -65 361t-199 112q-268 0 -268 -459z" /><glyph unicode="1" d="M84 1061l498 323h239v-1132h416l-70 -252h-1017v252h380v776l-346 -229z" /><glyph unicode="2" d="M109 0v106q0 270 100 396q48 60 128 108t222 113q45 21 64.5 30t54.5 26t50 27t38.5 26.5t33 29.5t21 31t15.5 37.5t4 42.5q0 87 -71 133.5t-181 46.5q-96 0 -209.5 -25t-188.5 -61l-45 238q104 45 236 72.5t260 27.5q107 0 196 -25t157.5 -74.5t106.5 -131t38 -187.5 q0 -78 -17 -139t-48 -107.5t-86 -88.5t-118 -75t-157 -73q-144 -61 -199.5 -94.5t-81.5 -71.5q-24 -38 -24 -86h768l-70 -252h-997z" /><glyph unicode="3" d="M96 63l31 250q79 -38 187.5 -60t205.5 -22q154 0 230.5 54t76.5 151q0 87 -65.5 125.5t-214.5 38.5h-137v225h84q294 0 294 176q0 73 -66 112.5t-175 39.5q-175 0 -371 -80l-41 238q229 94 469 94q222 0 354 -94.5t132 -261.5q0 -101 -54 -183.5t-157 -122.5v-8 q123 -29 188.5 -110t65.5 -205q0 -205 -156 -322.5t-418 -117.5q-267 0 -463 83z" /><glyph unicode="4" d="M45 315v181l664 888h319v-817h221l-69 -252h-152v-315h-291v315h-692zM399 567h338v453z" /><glyph unicode="5" d="M115 82l47 240q228 -91 420 -91q133 0 207.5 57t74.5 152q0 101 -71 146t-211 45h-377l51 753h848l-70 -251h-530l-17 -250h154q255 0 389.5 -101t134.5 -323q0 -157 -73.5 -266.5t-197.5 -161t-288 -51.5q-266 0 -491 102z" /><glyph unicode="6" d="M78 633q0 164 47 304.5t135.5 245t224.5 163.5t306 59q167 0 299 -47l-23 -244q-122 39 -238 39q-181 0 -289 -89t-143 -249q151 105 340 105q132 0 237 -49.5t168.5 -150t63.5 -235.5q0 -147 -69.5 -263t-188 -179t-264.5 -63q-280 0 -443 176t-163 477zM381 571 q13 -165 91.5 -252.5t207.5 -87.5q100 0 162.5 64.5t62.5 165.5q0 96 -60.5 152.5t-168.5 56.5q-157 0 -295 -99z" /><glyph unicode="7" d="M61 1384h1125v-184l-682 -1200h-334l670 1133h-709z" /><glyph unicode="8" d="M66 379q0 185 208 303q-91 58 -135.5 137.5t-44.5 169.5q0 191 155.5 303.5t405.5 112.5q115 0 212 -31t160.5 -83t98.5 -119.5t35 -141.5q0 -167 -172 -287q219 -102 219 -313q0 -204 -157.5 -327t-419.5 -123q-251 0 -408 108.5t-157 290.5zM360 420q0 -86 77.5 -141.5 t209.5 -55.5q125 0 192.5 49t67.5 127q0 65 -47.5 100.5t-161.5 55.5l-157 29q-7 1 -19.5 3t-22.5 4t-18 5q-121 -74 -121 -176zM385 1001q0 -122 168 -151l195 -35l24 -4q107 74 107 182q0 71 -65 122.5t-175 51.5q-111 0 -182.5 -46t-71.5 -120z" /><glyph unicode="9" d="M66 909q0 148 71.5 262t195 174t277.5 60q283 0 432.5 -181.5t149.5 -492.5q0 -160 -43 -296.5t-124 -238t-207 -159t-283 -57.5q-197 0 -355 51l27 239q140 -39 291 -39q315 0 376 320q-132 -92 -311 -92q-221 0 -359 120t-138 330zM367 928q0 -96 66.5 -157.5 t182.5 -61.5q128 0 273 86q-11 169 -82.5 264.5t-198.5 95.5q-107 0 -174 -62.5t-67 -164.5z" /><glyph unicode=":" horiz-adv-x="512" d="M111 0v244l290 61v-305h-290zM111 831v244l290 62v-306h-290z" /><glyph unicode=";" horiz-adv-x="512" d="M37 -248q52 39 84 70t58.5 77.5t33.5 100.5h-109v258l310 59v-260q0 -129 -54 -223q-59 -100 -210 -199zM111 831v244l290 62v-306h-290z" /><glyph unicode="&#x3c;" horiz-adv-x="1044" d="M109 449v172l763 403l105 -199l-563 -290l563 -295l-105 -199z" /><glyph unicode="=" horiz-adv-x="1044" d="M96 223v226h875l-64 -226h-811zM96 621v225h875l-64 -225h-811z" /><glyph unicode="&#x3e;" horiz-adv-x="1044" d="M100 240l564 295l-564 290l105 199l764 -403v-172l-764 -408z" /><glyph unicode="?" horiz-adv-x="1019" d="M57 1321q89 37 205.5 60.5t218.5 23.5q218 0 341.5 -100.5t123.5 -268.5q0 -195 -237 -350q-97 -64 -137 -113t-40 -124v-39h-215v39q0 134 44 215.5t151 154.5q74 49 108.5 93t34.5 102q0 73 -56 114t-155 41q-80 0 -177.5 -21t-168.5 -54zM303 0v207l250 53v-260h-250z " /><glyph unicode="@" horiz-adv-x="1775" d="M70 633q0 166 69 311.5t189 248t287.5 161.5t359.5 59q178 0 322 -51t235.5 -138.5t140.5 -201.5t49 -244q0 -206 -116 -336.5t-312 -130.5q-179 0 -252 133h-4q-37 -56 -102.5 -88t-147.5 -32q-128 0 -215.5 79.5t-87.5 231.5q0 123 57.5 221.5t149.5 150.5t197 52 q142 0 205 -92l20 51h186l-75 -369q-15 -73 -15 -102q0 -66 80 -66q92 0 146.5 81t54.5 214q0 142 -72.5 244t-189 150.5t-262.5 48.5q-129 0 -247.5 -41t-209.5 -114.5t-145 -184.5t-54 -242q0 -228 150 -352.5t395 -124.5q228 0 401 55l27 -176q-186 -68 -446 -68 q-351 0 -559.5 176t-208.5 486zM709 647q0 -149 131 -149q65 0 110 47.5t60 128.5l28 145q-15 31 -48.5 52.5t-80.5 21.5q-84 0 -142 -70t-58 -176z" /><glyph unicode="A" horiz-adv-x="1437" d="M16 0l572 1386h264l555 -1386h-311l-103 272h-551l-104 -272h-322zM537 524h362l-172 465h-18z" /><glyph unicode="B" horiz-adv-x="1306" d="M154 0v1384h528q241 0 361 -84t120 -272q0 -99 -50.5 -176t-141.5 -109v-4q130 -31 202 -119t72 -212q0 -408 -520 -408h-571zM444 252h275q119 0 173 40.5t54 129.5q0 90 -58 126t-190 36h-254v-332zM444 831h232q196 0 196 154q0 83 -47 115.5t-139 32.5h-242v-302z " /><glyph unicode="C" horiz-adv-x="1304" d="M90 686q0 321 204 520t540 199q227 0 378 -57l-24 -254q-61 24 -154.5 40.5t-185.5 16.5q-201 0 -330 -121.5t-129 -333.5q0 -214 122.5 -338.5t340.5 -124.5q188 0 342 52l23 -246q-152 -59 -379 -59q-149 0 -272.5 36t-210.5 100t-147.5 152.5t-89 193.5t-28.5 224z " /><glyph unicode="D" horiz-adv-x="1513" d="M154 0v1384h491q215 0 364 -45.5t248 -144.5q166 -166 166 -487q0 -342 -198 -525q-197 -182 -551 -182h-520zM444 252h234q121 0 198 28.5t136 90.5q112 118 112 334q0 116 -23 190t-71 125q-108 113 -342 113h-244v-881z" /><glyph unicode="E" horiz-adv-x="1179" d="M150 293v1091h970l-69 -251h-611v-330h541l-12 -252h-529v-166q0 -78 29 -105.5t106 -27.5h547l-69 -252h-625q-143 0 -210.5 72.5t-67.5 220.5z" /><glyph unicode="F" horiz-adv-x="1134" d="M154 0v1384h960l-70 -251h-600v-363h533l-12 -252h-521v-518h-290z" /><glyph unicode="G" horiz-adv-x="1480" d="M92 688q0 156 56 289t157 227.5t248.5 147.5t325.5 53q249 0 417 -62l-24 -253q-171 61 -387 61q-221 0 -357.5 -122.5t-136.5 -338.5q0 -213 130 -337t341 -124q112 0 201 27v401l291 76v-639q-95 -53 -232.5 -83.5t-287.5 -30.5q-173 0 -314 53t-234 147.5t-143.5 224 t-50.5 283.5z" /><glyph unicode="H" horiz-adv-x="1476" d="M154 0v1384h290v-538h588v538h291v-1384h-291v594h-588v-594h-290z" /><glyph unicode="I" horiz-adv-x="602" d="M156 0v1384h290v-1384h-290z" /><glyph unicode="J" horiz-adv-x="882" d="M55 252h219q88 0 129 38t41 128v966h291v-968q0 -189 -99.5 -302.5t-305.5 -113.5h-203z" /><glyph unicode="K" horiz-adv-x="1396" d="M154 0v1384h290v-538h140l411 538h342l-503 -663l290 -408q23 -34 45.5 -47.5t53.5 -13.5h133l-70 -252h-160q-72 0 -121 27t-90 84l-327 454q-21 33 -62 33h-82v-598h-290z" /><glyph unicode="L" horiz-adv-x="1110" d="M150 293v1091h290v-999q0 -78 29 -105.5t106 -27.5h486l-70 -252h-563q-143 0 -210.5 72.5t-67.5 220.5z" /><glyph unicode="M" horiz-adv-x="1779" d="M154 0v1384h252l485 -890h12l479 890h244v-1384h-280v762l-347 -594h-215l-350 612v-780h-280z" /><glyph unicode="N" horiz-adv-x="1501" d="M154 0v1384h206l715 -866v866h273v-1384h-197l-725 891v-891h-272z" /><glyph unicode="O" horiz-adv-x="1595" d="M90 692q0 162 56.5 298t153 226t225.5 139.5t274 49.5q146 0 274.5 -49.5t224.5 -139.5t151.5 -225.5t55.5 -298.5q0 -162 -55.5 -297t-151.5 -225.5t-224.5 -140t-274.5 -49.5q-145 0 -274 50t-225.5 140t-153 225t-56.5 297zM391 692q0 -202 114 -331.5t294 -129.5 q178 0 292.5 130t114.5 331t-114.5 331t-292.5 130q-180 0 -294 -129.5t-114 -331.5z" /><glyph unicode="P" horiz-adv-x="1280" d="M154 0v1384h516q261 0 400.5 -114t139.5 -350q0 -232 -131.5 -360t-386.5 -128h-248v-432h-290zM444 686h226q122 0 181.5 59t59.5 168q0 220 -247 220h-220v-447z" /><glyph unicode="Q" horiz-adv-x="1595" d="M90 692q0 162 56.5 298t153 226t225.5 139.5t274 49.5q146 0 274.5 -49.5t224.5 -139.5t151.5 -225.5t55.5 -298.5q0 -246 -121 -420t-323 -247l74 -78q50 -53 137 -53h176l-70 -252h-170q-86 0 -145 24.5t-113 83.5l-219 234q-134 11 -250.5 65t-203.5 142.5t-137 218 t-50 282.5zM391 692q0 -202 114 -331.5t294 -129.5q178 0 292.5 130t114.5 331t-114.5 331t-292.5 130q-180 0 -294 -129.5t-114 -331.5z" /><glyph unicode="R" horiz-adv-x="1363" d="M154 0v1384h557q252 0 383 -105t131 -337q0 -86 -28.5 -166.5t-94.5 -150t-160 -99.5l150 -217q22 -31 45 -44t59 -13h131l-70 -252h-163q-75 0 -121 27.5t-92 93.5l-211 307q-20 30 -37 38.5t-53 8.5h-136v-475h-290zM444 727h248q240 0 240 207q0 106 -61.5 152.5 t-182.5 46.5h-244v-406z" /><glyph unicode="S" horiz-adv-x="1136" d="M76 63l20 265q95 -45 209 -73t217 -28q124 0 183 45.5t59 120.5q0 65 -39 101q-8 7 -17 13.5t-24.5 13.5t-27 12t-37.5 14t-42 14t-54.5 17.5t-61.5 19.5q-195 64 -281 160t-86 260q0 179 146.5 283t384.5 104q206 0 366 -45l-10 -256q-188 53 -342 53q-121 0 -181.5 -34 t-60.5 -93q0 -69 56.5 -109.5t222.5 -91.5q108 -34 178.5 -68.5t120 -81.5t71 -108t21.5 -145q0 -206 -145.5 -326t-378.5 -120q-254 0 -467 83z" /><glyph unicode="T" horiz-adv-x="1243" d="M31 1133v251h1192l-70 -251h-395v-1133h-295v1133h-432z" /><glyph unicode="U" horiz-adv-x="1464" d="M143 530v854h291v-837q0 -144 76.5 -231t222.5 -87t221.5 87t75.5 231v837h291v-854q0 -275 -151.5 -412.5t-436.5 -137.5q-286 0 -438 138t-152 412z" /><glyph unicode="V" horiz-adv-x="1452" d="M16 1384h332l381 -950h19l354 950h334l-582 -1384h-242z" /><glyph unicode="W" horiz-adv-x="2088" d="M37 1384h328l249 -929h19l319 929h187l319 -929h19l249 929h328l-463 -1384h-250l-286 842h-19l-286 -842h-250z" /><glyph unicode="X" horiz-adv-x="1366" d="M20 0l490 698l-473 686h340l313 -473l307 473h342l-479 -686l481 -698h-340l-323 485l-316 -485h-342z" /><glyph unicode="Y" horiz-adv-x="1343" d="M16 1384h336l324 -596h6l319 596h326l-510 -897v-487h-291v489z" /><glyph unicode="Z" horiz-adv-x="1331" d="M70 1384h1153v-147l-734 -985h789l-70 -252h-1132v156l725 977h-662z" /><glyph unicode="[" horiz-adv-x="790" d="M176 -295v1700h516v-234h-237v-1232h237v-234h-516z" /><glyph unicode="\" horiz-adv-x="876" d="M45 1427h283l503 -1468h-282z" /><glyph unicode="]" horiz-adv-x="790" d="M98 -61h238v1232h-238v234h516v-1700h-516v234z" /><glyph unicode="^" horiz-adv-x="1044" d="M88 596l324 520h221l323 -520l-186 -104l-248 368l-248 -368z" /><glyph unicode="_" horiz-adv-x="1044" d="M18 -104h1006v-191h-1006v191z" /><glyph unicode="`" horiz-adv-x="716" d="M68 1403l127 217l428 -264l-103 -164z" /><glyph unicode="a" horiz-adv-x="1144" d="M61 344q0 156 105 233.5t344 77.5h70q73 0 155 -8v47q0 83 -56.5 119.5t-180.5 36.5q-152 0 -318 -43l-18 227q190 53 411 53q449 0 449 -380v-494q0 -145 4 -213h-248q-9 51 -14 102h-4q-116 -122 -303 -122q-175 0 -285.5 103t-110.5 261zM354 346q0 -68 48.5 -106.5 t127.5 -38.5q101 0 160 53q45 42 45 104v99h-248q-62 0 -97.5 -29t-35.5 -82z" /><glyph unicode="b" horiz-adv-x="1308" d="M139 68v1357l287 76v-526q61 51 147.5 81.5t186.5 30.5q94 0 177.5 -34.5t148.5 -99t103 -166.5t38 -228q0 -278 -163 -428.5t-439 -150.5q-129 0 -258.5 24t-227.5 64zM426 260q96 -35 225 -35q139 0 211 83t72 229q0 148 -70 230.5t-188 82.5q-117 0 -184 -64 q-66 -60 -66 -204v-322z" /><glyph unicode="c" horiz-adv-x="1067" d="M82 532q0 170 78 297t212.5 192.5t307.5 65.5q154 0 299 -45l-33 -235q-105 41 -241 41q-144 0 -237 -79.5t-93 -231.5t94 -235t240 -83q142 0 252 47l24 -231q-117 -55 -309 -55q-270 0 -432 146.5t-162 405.5z" /><glyph unicode="d" horiz-adv-x="1310" d="M82 528q0 126 44.5 232.5t120.5 177t176.5 110t211.5 39.5q74 0 145.5 -23.5t108.5 -59.5v421l287 76v-1198q0 -201 4 -303h-242q-16 88 -18 109h-7q-46 -58 -125.5 -93.5t-179.5 -35.5q-147 0 -264.5 62.5t-189.5 188.5t-72 297zM375 547q0 -146 78.5 -234t208.5 -88 q69 0 130 29.5t97 77.5v284q0 110 -63 172t-171 62q-124 0 -202 -84.5t-78 -218.5z" /><glyph unicode="e" horiz-adv-x="1183" d="M82 530q0 119 36.5 220t104.5 176.5t172 118t232 42.5q100 0 180.5 -27.5t134.5 -74.5t91 -112t53 -138t16 -155t-12 -146h-705q2 -97 86 -157t229 -60q143 0 306 35l24 -225q-165 -47 -354 -47q-297 0 -445.5 142.5t-148.5 407.5zM389 633h424q0 111 -49.5 176 t-149.5 65q-106 0 -164.5 -64.5t-60.5 -176.5z" /><glyph unicode="f" horiz-adv-x="892" d="M139 0v1051q0 228 126 348.5t362 120.5q125 0 241 -29l-26 -225q-77 18 -191 18q-118 0 -171.5 -49.5t-53.5 -157.5v-22h410l-68 -242h-342v-813h-287z" /><glyph unicode="g" horiz-adv-x="1314" d="M82 537q0 155 68 280t197 197.5t296 72.5q92 0 176.5 -37t128.5 -94l19 113h209v-983q0 -289 -139.5 -432t-391.5 -143q-190 0 -354 53l26 235q60 -23 140 -38t147 -15q295 0 295 277v67q-54 -47 -130.5 -74.5t-162.5 -27.5q-237 0 -380.5 152.5t-143.5 396.5zM375 541 q0 -147 80.5 -231.5t206.5 -84.5q70 0 130 22t97 58v330q0 94 -65 154.5t-162 60.5q-130 0 -208.5 -84.5t-78.5 -224.5z" /><glyph unicode="h" horiz-adv-x="1247" d="M139 0v1425l287 76v-514q74 45 162 72.5t166 27.5q179 0 274 -106q92 -103 92 -309v-672h-286v639q0 118 -52 164q-47 41 -131 41q-59 0 -119 -20.5t-106 -51.5v-772h-287z" /><glyph unicode="i" horiz-adv-x="573" d="M141 1229v264l291 76v-340h-291zM143 0v1069h287v-1069h-287z" /><glyph unicode="j" horiz-adv-x="573" d="M-160 -463l21 236q72 -21 133 -21q79 0 114 49.5t35 155.5v1112h287v-1083q0 -242 -100 -358.5t-301 -116.5q-96 0 -189 26zM141 1229v264l291 76v-340h-291z" /><glyph unicode="k" horiz-adv-x="1224" d="M139 0v1425l287 76v-803h82l297 371h336l-391 -487l233 -291q21 -27 41 -38t51 -11h109l-68 -242h-135q-76 0 -122.5 27t-100.5 94l-248 313q-20 23 -51 23h-33v-457h-287z" /><glyph unicode="l" horiz-adv-x="573" d="M143 0v1425l287 76v-1501h-287z" /><glyph unicode="m" horiz-adv-x="1892" d="M139 0v1069h254l15 -94q72 48 163.5 80t184.5 32q181 0 278 -126q92 56 196.5 91t196.5 35q80 0 150 -27t104 -69q50 -57 67 -130.5t17 -194.5v-666h-286v633q0 68 -6 104.5t-25 61.5q-39 45 -129 45q-49 0 -113 -20t-112 -50q2 -37 2 -106v-668h-287v633q0 110 -37 160 q-39 51 -123 51q-117 0 -223 -72v-772h-287z" /><glyph unicode="n" horiz-adv-x="1247" d="M139 0v1069h254l15 -94q75 50 169 81t177 31q179 0 274 -106q92 -103 92 -309v-672h-286v639q0 118 -52 164q-47 41 -131 41q-59 0 -119 -20.5t-106 -51.5v-772h-287z" /><glyph unicode="o" horiz-adv-x="1286" d="M82 532q0 257 151 406t410 149t410 -147.5t151 -404.5t-151 -406t-410 -149q-265 0 -413 146.5t-148 405.5zM375 532q0 -153 75 -236t195 -83t193 82.5t73 236.5t-74 238t-194 84t-194 -84t-74 -238z" /><glyph unicode="p" horiz-adv-x="1337" d="M139 -471v1540h236l12 -113q64 58 160 94.5t201 36.5q221 0 364 -144.5t143 -391.5q0 -139 -42 -248.5t-116 -179.5t-173 -106.5t-215 -36.5q-81 0 -157.5 21t-125.5 54v-450zM426 319q35 -39 109 -68.5t147 -29.5q131 0 206 82.5t75 241.5q0 144 -77.5 221.5 t-191.5 77.5q-122 0 -195 -67t-73 -175v-283z" /><glyph unicode="q" horiz-adv-x="1314" d="M82 539q0 155 74 281.5t199.5 196.5t275.5 70q85 0 164 -29.5t129 -82.5l16 94h236v-1489l-287 -51v553q-49 -46 -126 -74t-165 -28q-103 0 -195.5 38t-164 107.5t-114 176.5t-42.5 237zM375 543q0 -150 79 -234t201 -84q72 0 133.5 28t100.5 73v299q0 99 -64.5 162 t-162.5 63q-122 0 -204.5 -83t-82.5 -224z" /><glyph unicode="r" horiz-adv-x="808" d="M139 0v1069h246l18 -143q167 141 388 164l-11 -273q-185 -12 -354 -108v-709h-287z" /><glyph unicode="s" horiz-adv-x="950" d="M70 39l22 244q178 -66 332 -66q182 0 182 94q0 40 -39.5 64t-165.5 61q-169 49 -246 130t-77 204q0 66 25 120t67 90t100 60.5t121.5 35.5t132.5 11q162 0 312 -40l-21 -236q-127 45 -270 45q-174 0 -174 -78q0 -11 3 -20.5t11 -17.5t16 -15t22.5 -14t26 -11.5 t31.5 -11.5t34 -11t39 -11.5t40 -12.5q169 -54 236 -126t67 -185q0 -94 -35.5 -165.5t-97.5 -113.5t-138.5 -62.5t-164.5 -20.5q-217 0 -391 59z" /><glyph unicode="t" horiz-adv-x="833" d="M123 365v940l287 43v-293h370l-51 -242h-319v-397q0 -94 36.5 -137t116.5 -43q115 0 187 16l14 -225q-100 -35 -258 -35q-92 0 -159 18t-119 59t-78.5 115t-26.5 181z" /><glyph unicode="u" horiz-adv-x="1222" d="M127 414v655h287v-651q0 -205 198 -205q99 0 148 50t49 155v651h287v-655q0 -216 -125.5 -325t-362.5 -109q-240 0 -360.5 104.5t-120.5 329.5z" /><glyph unicode="v" horiz-adv-x="1165" d="M8 1069h311l265 -686h10l252 686h311l-448 -1069h-240z" /><glyph unicode="w" horiz-adv-x="1722" d="M8 1069h314l192 -666h8l228 666h223l233 -666h8l187 666h313l-377 -1069h-237l-234 678h-10l-235 -678h-242z" /><glyph unicode="x" horiz-adv-x="1157" d="M4 0l397 543l-389 526h340l219 -317l215 317h334l-387 -514l424 -555h-344l-246 344l-231 -344h-332z" /><glyph unicode="y" horiz-adv-x="1148" d="M8 1069h322l258 -674h8l235 674h320l-647 -1567l-260 64l209 469z" /><glyph unicode="z" horiz-adv-x="1052" d="M47 0v150l537 677h-465l-68 242h940v-145l-553 -682h578l-68 -242h-901z" /><glyph unicode="{" horiz-adv-x="856" d="M94 453v204q95 10 133.5 51t38.5 132v268q0 297 336 297h180v-234h-155q-45 0 -62.5 -23t-17.5 -73v-256q0 -214 -191 -260v-8q191 -46 191 -260v-256q0 -50 17.5 -73t62.5 -23h155v-234h-180q-336 0 -336 297v268q0 91 -38.5 132t-133.5 51z" /><glyph unicode="|" horiz-adv-x="569" d="M156 0v1493h258v-1493h-258z" /><glyph unicode="}" horiz-adv-x="856" d="M74 -61h155q45 0 62.5 23t17.5 73v256q0 214 191 260v8q-191 46 -191 260v256q0 50 -17.5 73t-62.5 23h-155v234h180q336 0 336 -297v-268q0 -91 38.5 -132t133.5 -51v-204q-95 -10 -133.5 -51t-38.5 -132v-268q0 -297 -336 -297h-180v234z" /><glyph unicode="~" horiz-adv-x="1044" d="M-4 487q71 113 150 171.5t184 58.5q54 0 101 -16t80 -38.5t63.5 -45t65.5 -38.5t71 -16q60 0 102.5 35.5t81.5 97.5l152 -112q-69 -110 -150 -170t-190 -60q-54 0 -101 15.5t-80.5 37.5t-64.5 44t-68 37.5t-76 15.5q-61 0 -98.5 -31.5t-77.5 -93.5z" /><glyph unicode="&#xa1;" horiz-adv-x="593" d="M156 -334l34 993h216l32 -993h-282zM172 809v260h250v-207z" /><glyph unicode="&#xa2;" d="M129 532q0 239 139.5 383t366.5 168v187h170v-187q121 -10 221 -41l-33 -235q-92 34 -188 39v-627q114 6 203 47l24 -231q-85 -42 -227 -51v-177h-170v177q-235 24 -370.5 167t-135.5 381zM422 537q0 -119 57 -195.5t156 -105.5v595q-98 -28 -155.5 -102t-57.5 -192z" /><glyph unicode="&#xa3;" d="M139 0v213q87 32 124.5 90t37.5 160v131h-151v229h151v115q0 229 131.5 348t376.5 119q186 0 334 -59l-31 -226q-128 49 -264 49q-132 0 -193 -55t-61 -176v-115h428l-64 -229h-364v-121q0 -158 -125 -240v-2h723l-66 -231h-987z" /><glyph unicode="&#xa4;" horiz-adv-x="1044" d="M10 365l148 149q-49 87 -49 195t51 196l-150 152l156 137l141 -145q101 53 213 53q116 0 215 -55l144 147l155 -137l-153 -154q51 -88 51 -194t-49 -193l151 -151l-155 -138l-142 144q-101 -56 -219 -56q-119 0 -213 54l-139 -142zM346 709q0 -76 48.5 -123t125.5 -47 t125.5 47t48.5 123t-48.5 123t-125.5 47t-125.5 -47t-48.5 -123z" /><glyph unicode="&#xa5;" d="M-20 1384h335l324 -596h6l320 596h325l-323 -559h225l-51 -188h-285l-76 -133h365l-51 -189h-314v-315h-291v315h-339v189h339l-77 133h-285v188h176z" /><glyph unicode="&#xa6;" horiz-adv-x="569" d="M156 0v612h258v-612h-258zM156 915v578h258v-578h-258z" /><glyph unicode="&#xa7;" horiz-adv-x="1064" d="M100 682q0 126 156 223q-123 75 -123 209q0 139 115.5 215t302.5 76q148 0 319 -53l-26 -209q-150 47 -287 47q-172 0 -172 -74q0 -36 54.5 -62t205.5 -71q168 -52 240.5 -111.5t72.5 -160.5q0 -68 -43 -133t-108 -105q125 -70 125 -201q0 -137 -112.5 -214.5 t-287.5 -77.5q-226 0 -387 67l21 217q188 -69 336 -69q178 0 178 71q0 41 -74 72q-37 15 -147 47q-65 19 -111.5 35.5t-96.5 42.5t-80.5 55t-50.5 71t-20 93zM356 725q0 -42 28.5 -67t109.5 -56q69 -26 149 -51q26 15 42.5 44.5t16.5 57.5q0 41 -28 70t-115 59 q-98 34 -137 43q-66 -45 -66 -100z" /><glyph unicode="&#xa8;" horiz-adv-x="716" d="M12 1272v227l258 68v-295h-258zM449 1272v227l258 68v-295h-258z" /><glyph unicode="&#xa9;" horiz-adv-x="1691" d="M49 694q0 146 55 277.5t154.5 233t251.5 161t334 59.5t334 -59.5t251.5 -161t154 -233t54.5 -277.5q0 -117 -34 -226t-102 -201t-162 -161t-222 -108t-274 -39q-182 0 -334 60t-251.5 161.5t-154.5 234t-55 279.5zM272 694q0 -235 159 -387.5t413 -152.5t412.5 152.5 t158.5 387.5q0 234 -158.5 385.5t-412.5 151.5t-413 -151.5t-159 -385.5zM489 702q0 170 109 271.5t297 101.5q104 0 197 -35l-17 -168q-89 29 -174 29q-96 0 -151.5 -49t-55.5 -147q0 -203 217 -203q86 0 168 33l15 -168q-92 -39 -199 -39q-192 0 -299 103.5t-107 270.5z " /><glyph unicode="&#xaa;" horiz-adv-x="753" d="M49 918q0 110 69.5 156t192.5 46h62q40 0 76 -4v23q0 38 -30 56.5t-97 18.5q-97 0 -199 -30l-14 162q132 32 264 32q293 0 293 -241v-267q0 -88 6 -170h-174q-18 41 -23 74h-4q-34 -41 -74 -62.5t-100 -21.5q-35 0 -68.5 7t-66.5 24.5t-57.5 43t-40 65t-15.5 88.5z M264 924q0 -34 21.5 -56t64.5 -22q45 0 72 24.5t27 57.5v59h-99q-86 0 -86 -63z" /><glyph unicode="&#xab;" horiz-adv-x="1206" d="M45 516l438 434l142 -119l-289 -315l293 -319l-150 -129zM582 516l438 434l141 -119l-289 -315l293 -319l-149 -129z" /><glyph unicode="&#xac;" horiz-adv-x="1044" d="M74 606v225h844v-583h-234v358h-610z" /><glyph unicode="&#xad;" horiz-adv-x="575" d="M41 424v219h518l-61 -219h-457z" /><glyph unicode="&#xae;" horiz-adv-x="1691" d="M49 694q0 146 55 277.5t154.5 233t251.5 161t334 59.5t334 -59.5t251.5 -161t154 -233t54.5 -277.5q0 -117 -34 -226t-102 -201t-162 -161t-222 -108t-274 -39q-182 0 -334 60t-251.5 161.5t-154.5 234t-55 279.5zM272 694q0 -235 159 -387.5t413 -152.5t412.5 152.5 t158.5 387.5q0 234 -158.5 385.5t-412.5 151.5t-413 -151.5t-159 -385.5zM563 338v727h311q130 0 202.5 -57t72.5 -166q0 -163 -152 -230l68 -100q12 -18 24 -24.5t33 -6.5h62l-37 -143h-96q-46 0 -72 13t-47 44l-107 164q-13 21 -41 21h-26v-242h-195zM758 727h104 q43 0 65.5 26t22.5 72q0 93 -88 93h-104v-191z" /><glyph unicode="&#xaf;" horiz-adv-x="716" d="M45 1286v197h627v-197h-627z" /><glyph unicode="&#xb0;" horiz-adv-x="716" d="M78 1155q0 119 79 197t201 78q123 0 202 -78t79 -197t-79 -195.5t-202 -76.5t-201.5 76.5t-78.5 195.5zM256 1155q0 -46 27.5 -74t74.5 -28t75 28t28 74t-28 75.5t-75 29.5t-74.5 -29.5t-27.5 -75.5z" /><glyph unicode="&#xb1;" horiz-adv-x="1044" d="M96 0v225h875l-64 -225h-811zM96 631v225h305v297h234v-297h336l-64 -225h-272v-297h-234v297h-305z" /><glyph unicode="&#xb2;" horiz-adv-x="819" d="M80 713v78q0 90 13 144.5t48 100.5q34 43 77.5 70.5t133.5 60.5q39 15 55.5 21.5t39.5 18t31.5 21t15 23t6.5 31.5q0 84 -131 84q-56 0 -120.5 -14.5t-111.5 -36.5l-26 192q55 26 140.5 44t166.5 18q146 0 245 -68t99 -196q0 -190 -244 -281q-78 -29 -112.5 -48 t-45.5 -38q-6 -12 -6 -31h416l-53 -194h-637z" /><glyph unicode="&#xb3;" horiz-adv-x="819" d="M82 748l12 190q45 -19 115.5 -32t120.5 -13q170 0 170 86q0 45 -38 62.5t-116 17.5h-65v153h41q163 0 163 80q0 68 -141 68q-87 0 -217 -33l-10 189q129 40 297 40q154 0 240.5 -57.5t86.5 -152.5q0 -67 -39.5 -119t-119.5 -76v-8q86 -18 132 -70t46 -123 q0 -111 -102.5 -182.5t-272.5 -71.5q-165 0 -303 52z" /><glyph unicode="&#xb4;" horiz-adv-x="716" d="M100 1364l422 256l123 -217l-452 -211z" /><glyph unicode="&#xb6;" horiz-adv-x="1255" d="M57 1030q0 169 108 272t294 103h784l-57 -205h-168v-1401h-234v1401h-139v-1401h-246v850q-148 27 -245 124t-97 257z" /><glyph unicode="&#xb7;" horiz-adv-x="512" d="M111 401v244l290 62v-306h-290z" /><glyph unicode="&#xb8;" horiz-adv-x="716" d="M125 -485l6 145q70 -18 148 -18q47 0 79.5 16t32.5 49q0 62 -100 62h-148l58 231h161l-20 -88h29q113 0 171 -56.5t58 -146.5q0 -99 -77.5 -160t-198.5 -61q-97 0 -199 27z" /><glyph unicode="&#xb9;" horiz-adv-x="819" d="M53 1362l340 190h178v-645h199l-53 -194h-584v194h180v361l-176 -99z" /><glyph unicode="&#xba;" horiz-adv-x="794" d="M33 1034q0 165 91.5 254.5t272.5 89.5t273 -90t92 -254t-92 -254t-273 -90t-272.5 89.5t-91.5 254.5zM256 1034q0 -174 141 -174q142 0 142 174t-142 174q-141 0 -141 -174z" /><glyph unicode="&#xbb;" horiz-adv-x="1206" d="M41 197l293 319l-289 315l141 119l439 -434l-435 -448zM578 197l292 319l-288 315l141 119l438 -434l-434 -448z" /><glyph unicode="&#xbc;" horiz-adv-x="2088" d="M39 1194l340 190h178v-645h199l-54 -194h-583v194h180v361l-176 -99zM487 84l998 1393l217 -136l-997 -1392zM1198 162v145l453 533h235v-484h156l-53 -194h-103v-162h-233v162h-455zM1477 356h176v205z" /><glyph unicode="&#xbd;" horiz-adv-x="2088" d="M39 1194l340 190h178v-645h199l-54 -194h-583v194h180v361l-176 -99zM487 84l998 1393l217 -136l-997 -1392zM1399 0v78q0 90 13 145t48 101q34 43 77.5 70.5t133.5 60.5q98 37 121 56q27 22 27 58q0 84 -131 84q-56 0 -120.5 -14.5t-111.5 -36.5l-26 193q55 26 140 43.5 t167 17.5q146 0 245 -68t99 -196q0 -190 -244 -281q-78 -29 -112.5 -48t-45.5 -38q-6 -12 -6 -30h416l-53 -195h-637z" /><glyph unicode="&#xbe;" horiz-adv-x="2088" d="M125 580l12 190q45 -19 115.5 -32t120.5 -13q170 0 170 86q0 45 -38 62.5t-116 17.5h-65v153h41q163 0 163 80q0 68 -141 68q-87 0 -217 -33l-10 189q56 17 140 29t157 12q154 0 240.5 -57.5t86.5 -153.5q0 -67 -39.5 -119t-119.5 -76v-8q86 -18 132 -70t46 -123 q0 -111 -102.5 -182.5t-272.5 -71.5q-165 0 -303 52zM481 84l998 1393l217 -136l-998 -1392zM1198 162v145l453 533h235v-484h156l-53 -194h-103v-162h-233v162h-455zM1477 356h176v205z" /><glyph unicode="&#xbf;" horiz-adv-x="1019" d="M57 33q0 194 238 350q97 63 136.5 113t39.5 125v38h215v-38q0 -135 -43.5 -216.5t-150.5 -154.5q-75 -50 -109.5 -93.5t-34.5 -101.5q0 -73 56 -114t155 -41q81 0 178 21t168 54l41 -227q-89 -37 -205.5 -60.5t-218.5 -23.5q-218 0 -341.5 100.5t-123.5 268.5zM451 809 v260h249v-207z" /><glyph unicode="&#xc0;" horiz-adv-x="1437" d="M16 0l572 1386h264l555 -1386h-311l-103 272h-551l-104 -272h-322zM373 1710l127 217l428 -264l-103 -164zM537 524h362l-172 465h-18z" /><glyph unicode="&#xc1;" horiz-adv-x="1437" d="M16 0l572 1386h264l555 -1386h-311l-103 272h-551l-104 -272h-322zM498 1671l422 256l122 -217l-452 -211zM537 524h362l-172 465h-18z" /><glyph unicode="&#xc2;" horiz-adv-x="1437" d="M16 0l572 1386h264l555 -1386h-311l-103 272h-551l-104 -272h-322zM369 1581l233 332h240l229 -332l-170 -88l-170 213h-18l-172 -213zM537 524h362l-172 465h-18z" /><glyph unicode="&#xc3;" horiz-adv-x="1437" d="M16 0l572 1386h264l555 -1386h-311l-103 272h-551l-104 -272h-322zM315 1591q48 128 114.5 190t160.5 62q35 0 67 -8.5t50.5 -17.5t46.5 -25q69 -41 106 -41q69 0 101 86l151 -61q-33 -119 -99.5 -176.5t-142.5 -57.5q-72 0 -159 49q-43 24 -66 33.5t-47 9.5 q-84 0 -133 -104zM537 524h362l-172 465h-18z" /><glyph unicode="&#xc4;" horiz-adv-x="1437" d="M16 0l572 1386h264l555 -1386h-311l-103 272h-551l-104 -272h-322zM369 1579v227l258 68v-295h-258zM537 524h362l-172 465h-18zM805 1579v227l258 68v-295h-258z" /><glyph unicode="&#xc5;" horiz-adv-x="1437" d="M16 0l572 1386h264l555 -1386h-311l-103 272h-551l-104 -272h-322zM492 1718q0 93 62.5 156t164.5 63t164.5 -63t62.5 -156q0 -94 -62.5 -155.5t-164.5 -61.5t-164.5 61.5t-62.5 155.5zM537 524h362l-172 465h-18zM637 1718q0 -37 22.5 -60.5t59.5 -23.5t59.5 23.5 t22.5 60.5t-23 61.5t-59 24.5t-59 -24.5t-23 -61.5z" /><glyph unicode="&#xc6;" horiz-adv-x="1986" d="M-12 0l835 1384h1104l-69 -251h-611v-330h541l-12 -252h-529v-166q0 -78 29 -105.5t106 -27.5h547l-69 -252h-625q-279 0 -279 281h-464l-158 -281h-346zM631 524h325v572z" /><glyph unicode="&#xc7;" horiz-adv-x="1304" d="M90 686q0 321 204 520t540 199q227 0 378 -57l-24 -254q-61 24 -154.5 40.5t-185.5 16.5q-201 0 -330 -121.5t-129 -333.5q0 -214 122.5 -338.5t340.5 -124.5q188 0 342 52l23 -246q-152 -59 -379 -59h-19l-14 -68h29q113 0 171 -56.5t58 -146.5q0 -99 -78 -160t-199 -61 q-96 0 -198 27l6 145q70 -18 147 -18q48 0 80.5 16t32.5 49q0 62 -100 62h-148l56 225q-280 48 -426 235.5t-146 456.5z" /><glyph unicode="&#xc8;" horiz-adv-x="1179" d="M150 293v1091h970l-69 -251h-611v-330h541l-12 -252h-529v-166q0 -78 29 -105.5t106 -27.5h547l-69 -252h-625q-143 0 -210.5 72.5t-67.5 220.5zM358 1710l127 217l428 -264l-102 -164z" /><glyph unicode="&#xc9;" horiz-adv-x="1179" d="M150 293v1091h970l-69 -251h-611v-330h541l-12 -252h-529v-166q0 -78 29 -105.5t106 -27.5h547l-69 -252h-625q-143 0 -210.5 72.5t-67.5 220.5zM408 1671l421 256l123 -217l-452 -211z" /><glyph unicode="&#xca;" horiz-adv-x="1179" d="M150 293v1091h970l-69 -251h-611v-330h541l-12 -252h-529v-166q0 -78 29 -105.5t106 -27.5h547l-69 -252h-625q-143 0 -210.5 72.5t-67.5 220.5zM293 1581l233 332h240l229 -332l-170 -88l-170 213h-18l-172 -213z" /><glyph unicode="&#xcb;" horiz-adv-x="1179" d="M150 293v1091h970l-69 -251h-611v-330h541l-12 -252h-529v-166q0 -78 29 -105.5t106 -27.5h547l-69 -252h-625q-143 0 -210.5 72.5t-67.5 220.5zM289 1579v227l258 68v-295h-258zM725 1579v227l258 68v-295h-258z" /><glyph unicode="&#xcc;" horiz-adv-x="602" d="M-20 1710l126 217l429 -264l-103 -164zM156 0v1384h290v-1384h-290z" /><glyph unicode="&#xcd;" horiz-adv-x="602" d="M76 1671l422 256l123 -217l-453 -211zM156 0v1384h290v-1384h-290z" /><glyph unicode="&#xce;" horiz-adv-x="602" d="M-47 1581l233 332h240l229 -332l-170 -88l-170 213h-18l-172 -213zM156 0v1384h290v-1384h-290z" /><glyph unicode="&#xcf;" horiz-adv-x="602" d="M-45 1579v227l258 68v-295h-258zM156 0v1384h290v-1384h-290zM391 1579v227l258 68v-295h-258z" /><glyph unicode="&#xd0;" horiz-adv-x="1554" d="M41 582v221h154v581h491q215 0 364 -45.5t248 -144.5q166 -166 166 -487q0 -338 -200 -523q-199 -184 -570 -184h-499v582h-154zM485 252h242q209 0 324 121q114 120 114 332q0 116 -23 190t-71 125q-59 62 -144 87.5t-222 25.5h-220v-330h301l-61 -221h-240v-330z" /><glyph unicode="&#xd1;" horiz-adv-x="1501" d="M154 0v1384h206l715 -866v866h273v-1384h-197l-725 891v-891h-272zM354 1591q48 128 114.5 190t160.5 62q35 0 67 -8.5t50.5 -17.5t46.5 -25q69 -41 106 -41q68 0 100 86l152 -61q-33 -119 -99.5 -176.5t-142.5 -57.5q-72 0 -159 49q-43 24 -66 33.5t-47 9.5 q-84 0 -133 -104z" /><glyph unicode="&#xd2;" horiz-adv-x="1595" d="M90 692q0 162 56.5 298t153 226t225.5 139.5t274 49.5q146 0 274.5 -49.5t224.5 -139.5t151.5 -225.5t55.5 -298.5q0 -162 -55.5 -297t-151.5 -225.5t-224.5 -140t-274.5 -49.5q-145 0 -274 50t-225.5 140t-153 225t-56.5 297zM391 692q0 -202 114 -331.5t294 -129.5 q178 0 292.5 130t114.5 331t-114.5 331t-292.5 130q-180 0 -294 -129.5t-114 -331.5zM489 1710l127 217l428 -264l-102 -164z" /><glyph unicode="&#xd3;" horiz-adv-x="1595" d="M90 692q0 162 56.5 298t153 226t225.5 139.5t274 49.5q146 0 274.5 -49.5t224.5 -139.5t151.5 -225.5t55.5 -298.5q0 -162 -55.5 -297t-151.5 -225.5t-224.5 -140t-274.5 -49.5q-145 0 -274 50t-225.5 140t-153 225t-56.5 297zM391 692q0 -202 114 -331.5t294 -129.5 q178 0 292.5 130t114.5 331t-114.5 331t-292.5 130q-180 0 -294 -129.5t-114 -331.5zM569 1671l422 256l123 -217l-452 -211z" /><glyph unicode="&#xd4;" horiz-adv-x="1595" d="M90 692q0 162 56.5 298t153 226t225.5 139.5t274 49.5q146 0 274.5 -49.5t224.5 -139.5t151.5 -225.5t55.5 -298.5q0 -162 -55.5 -297t-151.5 -225.5t-224.5 -140t-274.5 -49.5q-145 0 -274 50t-225.5 140t-153 225t-56.5 297zM391 692q0 -202 114 -331.5t294 -129.5 q178 0 292.5 130t114.5 331t-114.5 331t-292.5 130q-180 0 -294 -129.5t-114 -331.5zM446 1581l234 332h240l229 -332l-170 -88l-170 213h-18l-173 -213z" /><glyph unicode="&#xd5;" horiz-adv-x="1595" d="M90 692q0 162 56.5 298t153 226t225.5 139.5t274 49.5q146 0 274.5 -49.5t224.5 -139.5t151.5 -225.5t55.5 -298.5q0 -162 -55.5 -297t-151.5 -225.5t-224.5 -140t-274.5 -49.5q-145 0 -274 50t-225.5 140t-153 225t-56.5 297zM391 692q0 -202 114 -331.5t294 -129.5 q178 0 292.5 130t114.5 331t-114.5 331t-292.5 130q-180 0 -294 -129.5t-114 -331.5zM401 1591q48 128 114.5 190t160.5 62q35 0 67 -8.5t50.5 -17.5t46.5 -25q69 -41 106 -41q69 0 101 86l151 -61q-33 -119 -99.5 -176.5t-142.5 -57.5q-72 0 -159 49q-43 24 -66 33.5 t-47 9.5q-84 0 -133 -104z" /><glyph unicode="&#xd6;" horiz-adv-x="1595" d="M90 692q0 162 56.5 298t153 226t225.5 139.5t274 49.5q146 0 274.5 -49.5t224.5 -139.5t151.5 -225.5t55.5 -298.5q0 -162 -55.5 -297t-151.5 -225.5t-224.5 -140t-274.5 -49.5q-145 0 -274 50t-225.5 140t-153 225t-56.5 297zM391 692q0 -202 114 -331.5t294 -129.5 q178 0 292.5 130t114.5 331t-114.5 331t-292.5 130q-180 0 -294 -129.5t-114 -331.5zM446 1579v227l259 68v-295h-259zM883 1579v227l258 68v-295h-258z" /><glyph unicode="&#xd7;" horiz-adv-x="1044" d="M104 279l258 258l-258 258l160 159l258 -258l260 258l160 -159l-260 -258l260 -258l-160 -160l-260 258l-258 -258z" /><glyph unicode="&#xd8;" horiz-adv-x="1595" d="M90 692q0 162 56.5 298t153 226t225.5 139.5t274 49.5q169 0 313 -66l117 172l168 -106l-117 -174q106 -95 165.5 -232.5t59.5 -306.5q0 -162 -55.5 -297t-151.5 -225.5t-224.5 -140t-274.5 -49.5q-171 0 -316 65l-110 -166l-168 107l112 166q-107 95 -167 233t-60 307z M391 692q0 -175 88 -299l486 725q-78 35 -166 35q-180 0 -294 -129.5t-114 -331.5zM631 266q78 -35 168 -35q178 0 292.5 130t114.5 331q0 172 -88 297z" /><glyph unicode="&#xd9;" horiz-adv-x="1464" d="M143 530v854h291v-837q0 -144 76.5 -231t222.5 -87t221.5 87t75.5 231v837h291v-854q0 -275 -151.5 -412.5t-436.5 -137.5q-286 0 -438 138t-152 412zM430 1710l127 217l428 -264l-102 -164z" /><glyph unicode="&#xda;" horiz-adv-x="1464" d="M143 530v854h291v-837q0 -144 76.5 -231t222.5 -87t221.5 87t75.5 231v837h291v-854q0 -275 -151.5 -412.5t-436.5 -137.5q-286 0 -438 138t-152 412zM502 1671l422 256l123 -217l-453 -211z" /><glyph unicode="&#xdb;" horiz-adv-x="1464" d="M143 530v854h291v-837q0 -144 76.5 -231t222.5 -87t221.5 87t75.5 231v837h291v-854q0 -275 -151.5 -412.5t-436.5 -137.5q-286 0 -438 138t-152 412zM385 1581l233 332h240l229 -332l-169 -88l-170 213h-19l-172 -213z" /><glyph unicode="&#xdc;" horiz-adv-x="1464" d="M143 530v854h291v-837q0 -144 76.5 -231t222.5 -87t221.5 87t75.5 231v837h291v-854q0 -275 -151.5 -412.5t-436.5 -137.5q-286 0 -438 138t-152 412zM385 1579v227l258 68v-295h-258zM821 1579v227l258 68v-295h-258z" /><glyph unicode="&#xdd;" horiz-adv-x="1343" d="M16 1384h336l324 -596h6l319 596h326l-510 -897v-487h-291v489zM473 1671l422 256l123 -217l-453 -211z" /><glyph unicode="&#xde;" horiz-adv-x="1280" d="M154 0v1384h290v-182h226q260 0 400 -114.5t140 -350.5q0 -231 -131.5 -359t-386.5 -128h-248v-250h-290zM444 504h226q122 0 181.5 59t59.5 168q0 219 -247 219h-220v-446z" /><glyph unicode="&#xdf;" horiz-adv-x="1425" d="M135 0v1069q0 119 41.5 207.5t116.5 141t170 77.5t211 25q224 0 352.5 -87.5t128.5 -256.5q0 -80 -40 -147.5t-134 -143.5q-33 -27 -47.5 -40t-26.5 -31t-12 -36q0 -32 33 -55q23 -16 123 -57q75 -31 123 -54t93.5 -53t70.5 -62t40 -74t15 -95q0 -158 -112 -253t-341 -95 q-192 0 -375 59l23 246q153 -68 332 -68q96 0 139 25.5t43 66.5q0 14 -4.5 25t-15 21t-21.5 17t-31.5 15.5t-36.5 14t-45.5 16t-50.5 18.5q-147 55 -207 103q-52 41 -78 88t-26 114q0 73 37.5 132.5t126.5 132.5q69 58 94.5 89.5t25.5 69.5q0 53 -51 87t-143 34 q-254 0 -254 -244v-1042h-287z" /><glyph unicode="&#xe0;" horiz-adv-x="1144" d="M61 344q0 156 105 233.5t344 77.5h70q73 0 155 -8v47q0 83 -56.5 119.5t-180.5 36.5q-152 0 -318 -43l-18 227q190 53 411 53q449 0 449 -380v-494q0 -145 4 -213h-248q-9 51 -14 102h-4q-116 -122 -303 -122q-175 0 -285.5 103t-110.5 261zM274 1403l127 217l428 -264 l-102 -164zM354 346q0 -68 48.5 -106.5t127.5 -38.5q101 0 160 53q45 42 45 104v99h-248q-62 0 -97.5 -29t-35.5 -82z" /><glyph unicode="&#xe1;" horiz-adv-x="1144" d="M61 344q0 156 105 233.5t344 77.5h70q73 0 155 -8v47q0 83 -56.5 119.5t-180.5 36.5q-152 0 -318 -43l-18 227q190 53 411 53q449 0 449 -380v-494q0 -145 4 -213h-248q-9 51 -14 102h-4q-116 -122 -303 -122q-175 0 -285.5 103t-110.5 261zM354 346q0 -68 48.5 -106.5 t127.5 -38.5q101 0 160 53q45 42 45 104v99h-248q-62 0 -97.5 -29t-35.5 -82zM356 1364l422 256l123 -217l-452 -211z" /><glyph unicode="&#xe2;" horiz-adv-x="1144" d="M61 344q0 156 105 233.5t344 77.5h70q73 0 155 -8v47q0 83 -56.5 119.5t-180.5 36.5q-152 0 -318 -43l-18 227q190 53 411 53q449 0 449 -380v-494q0 -145 4 -213h-248q-9 51 -14 102h-4q-116 -122 -303 -122q-175 0 -285.5 103t-110.5 261zM225 1272l234 332h239 l230 -332l-170 -88l-170 213h-19l-172 -213zM354 346q0 -68 48.5 -106.5t127.5 -38.5q101 0 160 53q45 42 45 104v99h-248q-62 0 -97.5 -29t-35.5 -82z" /><glyph unicode="&#xe3;" horiz-adv-x="1144" d="M61 344q0 156 105 233.5t344 77.5h70q73 0 155 -8v47q0 83 -56.5 119.5t-180.5 36.5q-152 0 -318 -43l-18 227q190 53 411 53q449 0 449 -380v-494q0 -145 4 -213h-248q-9 51 -14 102h-4q-116 -122 -303 -122q-175 0 -285.5 103t-110.5 261zM203 1284q48 128 114 190 t160 62q35 0 67 -8.5t50.5 -17.5t46.5 -25q69 -41 107 -41q68 0 100 86l151 -62q-33 -119 -99 -176t-142 -57q-73 0 -160 49q-43 24 -66 33.5t-47 9.5q-84 0 -133 -104zM354 346q0 -68 48.5 -106.5t127.5 -38.5q101 0 160 53q45 42 45 104v99h-248q-62 0 -97.5 -29 t-35.5 -82z" /><glyph unicode="&#xe4;" horiz-adv-x="1144" d="M61 344q0 156 105 233.5t344 77.5h70q73 0 155 -8v47q0 83 -56.5 119.5t-180.5 36.5q-152 0 -318 -43l-18 227q190 53 411 53q449 0 449 -380v-494q0 -145 4 -213h-248q-9 51 -14 102h-4q-116 -122 -303 -122q-175 0 -285.5 103t-110.5 261zM248 1272v227l258 68v-295 h-258zM354 346q0 -68 48.5 -106.5t127.5 -38.5q101 0 160 53q45 42 45 104v99h-248q-62 0 -97.5 -29t-35.5 -82zM684 1272v227l258 68v-295h-258z" /><glyph unicode="&#xe5;" horiz-adv-x="1144" d="M61 344q0 156 105 233.5t344 77.5h70q73 0 155 -8v47q0 83 -56.5 119.5t-180.5 36.5q-152 0 -318 -43l-18 227q190 53 411 53q449 0 449 -380v-494q0 -145 4 -213h-248q-9 51 -14 102h-4q-116 -122 -303 -122q-175 0 -285.5 103t-110.5 261zM354 346q0 -68 48.5 -106.5 t127.5 -38.5q101 0 160 53q45 42 45 104v99h-248q-62 0 -97.5 -29t-35.5 -82zM377 1411q0 93 62.5 156t164.5 63t164.5 -63t62.5 -156q0 -94 -62.5 -155.5t-164.5 -61.5t-164.5 61.5t-62.5 155.5zM522 1411q0 -37 22.5 -60.5t59.5 -23.5t59.5 23.5t22.5 60.5t-23 61.5 t-59 24.5t-59 -24.5t-23 -61.5z" /><glyph unicode="&#xe6;" horiz-adv-x="1810" d="M59 350q0 151 106.5 228t342.5 77h70q73 0 155 -8v47q0 83 -56.5 119.5t-180.5 36.5q-152 0 -318 -43l-18 227q80 22 193 37.5t206 15.5q237 0 342 -118q144 118 361 118q122 0 214.5 -41t147.5 -113t82 -162t27 -196q0 -70 -9 -126h-708q3 -119 84 -175.5t241 -56.5 q132 0 295 35l25 -225q-165 -47 -356 -47q-340 0 -455 178q-56 -86 -156 -132t-225 -46q-190 0 -300 102t-110 268zM352 346q0 -68 48.5 -106.5t127.5 -38.5q101 0 160 53q45 42 45 104v99h-248q-62 0 -97.5 -29t-35.5 -82zM1020 647h424q-5 103 -54.5 165t-146.5 62 q-98 0 -156.5 -62.5t-66.5 -164.5z" /><glyph unicode="&#xe7;" horiz-adv-x="1067" d="M82 532q0 170 78 297t212.5 192.5t307.5 65.5q154 0 299 -45l-33 -235q-105 41 -241 41q-144 0 -237 -79.5t-93 -231.5t94 -235t240 -83q142 0 252 47l24 -231q-117 -55 -309 -55h-27l-14 -68h29q113 0 171 -56.5t58 -146.5q0 -99 -78 -160t-199 -61q-96 0 -198 27l6 145 q70 -18 147 -18q48 0 80.5 16t32.5 49q0 62 -100 62h-148l58 231q-193 45 -302.5 182.5t-109.5 349.5z" /><glyph unicode="&#xe8;" horiz-adv-x="1183" d="M82 530q0 119 36.5 220t104.5 176.5t172 118t232 42.5q100 0 180.5 -27.5t134.5 -74.5t91 -112t53 -138t16 -155t-12 -146h-705q2 -97 86 -157t229 -60q143 0 306 35l24 -225q-165 -47 -354 -47q-297 0 -445.5 142.5t-148.5 407.5zM319 1403l127 217l428 -264l-102 -164z M389 633h424q0 111 -49.5 176t-149.5 65q-106 0 -164.5 -64.5t-60.5 -176.5z" /><glyph unicode="&#xe9;" horiz-adv-x="1183" d="M82 530q0 119 36.5 220t104.5 176.5t172 118t232 42.5q100 0 180.5 -27.5t134.5 -74.5t91 -112t53 -138t16 -155t-12 -146h-705q2 -97 86 -157t229 -60q143 0 306 35l24 -225q-165 -47 -354 -47q-297 0 -445.5 142.5t-148.5 407.5zM360 1364l422 256l123 -217l-452 -211z M389 633h424q0 111 -49.5 176t-149.5 65q-106 0 -164.5 -64.5t-60.5 -176.5z" /><glyph unicode="&#xea;" horiz-adv-x="1183" d="M82 530q0 119 36.5 220t104.5 176.5t172 118t232 42.5q100 0 180.5 -27.5t134.5 -74.5t91 -112t53 -138t16 -155t-12 -146h-705q2 -97 86 -157t229 -60q143 0 306 35l24 -225q-165 -47 -354 -47q-297 0 -445.5 142.5t-148.5 407.5zM264 1272l234 332h239l230 -332 l-170 -88l-170 213h-19l-172 -213zM389 633h424q0 111 -49.5 176t-149.5 65q-106 0 -164.5 -64.5t-60.5 -176.5z" /><glyph unicode="&#xeb;" horiz-adv-x="1183" d="M82 530q0 119 36.5 220t104.5 176.5t172 118t232 42.5q100 0 180.5 -27.5t134.5 -74.5t91 -112t53 -138t16 -155t-12 -146h-705q2 -97 86 -157t229 -60q143 0 306 35l24 -225q-165 -47 -354 -47q-297 0 -445.5 142.5t-148.5 407.5zM274 1272v227l258 68v-295h-258z M389 633h424q0 111 -49.5 176t-149.5 65q-106 0 -164.5 -64.5t-60.5 -176.5zM711 1272v227l258 68v-295h-258z" /><glyph unicode="&#xec;" horiz-adv-x="573" d="M-59 1403l127 217l428 -264l-103 -164zM143 0v1069h287v-1069h-287z" /><glyph unicode="&#xed;" horiz-adv-x="573" d="M49 1364l422 256l123 -217l-453 -211zM143 0v1069h287v-1069h-287z" /><glyph unicode="&#xee;" horiz-adv-x="573" d="M-68 1272l234 332h240l229 -332l-170 -88l-170 213h-19l-172 -213zM143 0v1069h287v-1069h-287z" /><glyph unicode="&#xef;" horiz-adv-x="573" d="M-53 1272v227l258 68v-295h-258zM143 0v1069h287v-1069h-287zM383 1272v227l258 68v-295h-258z" /><glyph unicode="&#xf0;" horiz-adv-x="1271" d="M82 498q0 114 39.5 214t105.5 168.5t152.5 108t179.5 39.5q183 0 289 -106l6 4q-26 81 -113.5 162.5t-216.5 146.5l-108 -152l-166 101l90 123q-96 28 -176 41l123 184q91 -20 182 -49l104 141l160 -96l-84 -117q535 -252 535 -844q0 -274 -155 -430.5t-398 -156.5 q-246 0 -397.5 145.5t-151.5 372.5zM375 502q0 -132 72 -214.5t194 -82.5q119 0 187.5 81t68.5 220t-71 220t-183 81q-122 0 -195 -84.5t-73 -220.5z" /><glyph unicode="&#xf1;" horiz-adv-x="1247" d="M139 0v1069h254l15 -94q75 50 169 81t177 31q179 0 274 -106q92 -103 92 -309v-672h-286v639q0 118 -52 164q-47 41 -131 41q-59 0 -119 -20.5t-106 -51.5v-772h-287zM238 1284q48 128 114 190t160 62q35 0 67 -8.5t50.5 -17.5t46.5 -25q69 -41 106 -41q69 0 101 86 l151 -62q-33 -119 -99 -176t-142 -57q-73 0 -160 49q-43 24 -66 33.5t-47 9.5q-84 0 -133 -104z" /><glyph unicode="&#xf2;" horiz-adv-x="1286" d="M82 532q0 257 151 406t410 149t410 -147.5t151 -404.5t-151 -406t-410 -149q-265 0 -413 146.5t-148 405.5zM332 1403l127 217l428 -264l-103 -164zM375 532q0 -153 75 -236t195 -83t193 82.5t73 236.5t-74 238t-194 84t-194 -84t-74 -238z" /><glyph unicode="&#xf3;" horiz-adv-x="1286" d="M82 532q0 257 151 406t410 149t410 -147.5t151 -404.5t-151 -406t-410 -149q-265 0 -413 146.5t-148 405.5zM375 532q0 -153 75 -236t195 -83t193 82.5t73 236.5t-74 238t-194 84t-194 -84t-74 -238zM424 1364l422 256l123 -217l-453 -211z" /><glyph unicode="&#xf4;" horiz-adv-x="1286" d="M82 532q0 257 151 406t410 149t410 -147.5t151 -404.5t-151 -406t-410 -149q-265 0 -413 146.5t-148 405.5zM293 1272l233 332h240l229 -332l-170 -88l-170 213h-18l-172 -213zM375 532q0 -153 75 -236t195 -83t193 82.5t73 236.5t-74 238t-194 84t-194 -84t-74 -238z " /><glyph unicode="&#xf5;" horiz-adv-x="1286" d="M82 532q0 257 151 406t410 149t410 -147.5t151 -404.5t-151 -406t-410 -149q-265 0 -413 146.5t-148 405.5zM246 1284q48 128 114 190t160 62q35 0 67 -8.5t50.5 -17.5t46.5 -25q69 -41 107 -41q68 0 100 86l151 -62q-33 -119 -99 -176t-142 -57q-73 0 -160 49 q-43 24 -66 33.5t-47 9.5q-84 0 -133 -104zM375 532q0 -153 75 -236t195 -83t193 82.5t73 236.5t-74 238t-194 84t-194 -84t-74 -238z" /><glyph unicode="&#xf6;" horiz-adv-x="1286" d="M82 532q0 257 151 406t410 149t410 -147.5t151 -404.5t-151 -406t-410 -149q-265 0 -413 146.5t-148 405.5zM297 1272v227l258 68v-295h-258zM375 532q0 -153 75 -236t195 -83t193 82.5t73 236.5t-74 238t-194 84t-194 -84t-74 -238zM733 1272v227l258 68v-295h-258z" /><glyph unicode="&#xf7;" horiz-adv-x="1044" d="M96 422v225h875l-64 -225h-811zM377 16v244l291 62v-306h-291zM377 776v244l291 61v-305h-291z" /><glyph unicode="&#xf8;" horiz-adv-x="1286" d="M82 530q0 260 151 408.5t410 148.5q162 0 283 -59l121 158l135 -92l-123 -160q145 -151 145 -402q0 -256 -151.5 -404t-411.5 -148q-158 0 -276 53l-113 -148l-135 92l112 148q-147 147 -147 405zM375 532q0 -102 35 -174l358 465q-57 31 -125 31q-120 0 -194 -84 t-74 -238zM524 240q52 -27 119 -27q121 0 194.5 82t73.5 233q0 100 -32 172z" /><glyph unicode="&#xf9;" horiz-adv-x="1222" d="M127 414v655h287v-651q0 -205 198 -205q99 0 148 50t49 155v651h287v-655q0 -216 -125.5 -325t-362.5 -109q-240 0 -360.5 104.5t-120.5 329.5zM238 1403l127 217l428 -264l-103 -164z" /><glyph unicode="&#xfa;" horiz-adv-x="1222" d="M127 414v655h287v-651q0 -205 198 -205q99 0 148 50t49 155v651h287v-655q0 -216 -125.5 -325t-362.5 -109q-240 0 -360.5 104.5t-120.5 329.5zM414 1364l422 256l122 -217l-452 -211z" /><glyph unicode="&#xfb;" horiz-adv-x="1222" d="M127 414v655h287v-651q0 -205 198 -205q99 0 148 50t49 155v651h287v-655q0 -216 -125.5 -325t-362.5 -109q-240 0 -360.5 104.5t-120.5 329.5zM258 1272l234 332h239l230 -332l-170 -88l-170 213h-19l-172 -213z" /><glyph unicode="&#xfc;" horiz-adv-x="1222" d="M127 414v655h287v-651q0 -205 198 -205q99 0 148 50t49 155v651h287v-655q0 -216 -125.5 -325t-362.5 -109q-240 0 -360.5 104.5t-120.5 329.5zM270 1272v227l258 68v-295h-258zM707 1272v227l258 68v-295h-258z" /><glyph unicode="&#xfd;" horiz-adv-x="1148" d="M8 1069h322l258 -674h8l235 674h320l-647 -1567l-260 64l209 469zM391 1364l422 256l123 -217l-453 -211z" /><glyph unicode="&#xfe;" horiz-adv-x="1337" d="M139 -471v1896l287 76v-514q144 100 326 100q106 0 198 -36.5t160 -104.5t106.5 -171.5t38.5 -231.5q0 -176 -73 -305.5t-194 -193.5t-273 -64q-179 0 -289 75v-450zM426 319q35 -40 109 -69t151 -29q127 0 202 83t75 233q0 153 -77 230t-198 77q-117 0 -189.5 -67.5 t-72.5 -174.5v-283z" /><glyph unicode="&#xff;" horiz-adv-x="1148" d="M8 1069h322l258 -674h8l235 674h320l-647 -1567l-260 64l209 469zM240 1272v227l258 68v-295h-258zM676 1272v227l258 68v-295h-258z" /><glyph unicode="&#x152;" horiz-adv-x="2213" d="M90 686q0 221 95 385.5t258.5 249t373.5 84.5q220 0 367 -96v75h970l-69 -251h-610v-330h540l-12 -252h-528v-166q0 -78 29 -105.5t106 -27.5h547l-70 -252h-625q-82 0 -145 32.5t-96 88.5q-167 -141 -424 -141q-152 0 -282 49t-224 139t-147.5 223.5t-53.5 294.5z M391 692q0 -207 119 -334t336 -127q90 0 182 25t156 68v737q-69 42 -159 67t-181 25q-219 0 -336 -126.5t-117 -334.5z" /><glyph unicode="&#x153;" horiz-adv-x="2023" d="M82 530q0 260 151 408.5t412 148.5q149 0 253 -47.5t157 -126.5h8q53 75 154.5 124.5t244.5 49.5q101 0 183 -27.5t136.5 -74.5t91.5 -112.5t53 -138.5t16 -156q0 -74 -13 -144h-704q3 -99 86 -158t241 -59q130 0 293 35l25 -225q-165 -47 -363 -47q-315 0 -442 170h-8 q-131 -170 -414 -170q-264 0 -412.5 147t-148.5 403zM375 532q0 -153 75 -236t195 -83t193 82.5t73 236.5t-74 238t-194 84t-194 -84t-74 -238zM1229 633h424q0 112 -49 176.5t-152 64.5t-162 -65t-61 -176z" /><glyph unicode="&#x178;" horiz-adv-x="1343" d="M16 1384h336l324 -596h6l319 596h326l-510 -897v-487h-291v489zM334 1579v227l258 68v-295h-258zM770 1579v227l258 68v-295h-258z" /><glyph unicode="&#x2c6;" horiz-adv-x="716" d="M8 1272l234 332h239l230 -332l-170 -88l-170 213h-19l-172 -213z" /><glyph unicode="&#x2dc;" horiz-adv-x="716" d="M-39 1284q48 128 114.5 190t160.5 62q35 0 67 -8.5t50 -17.5t46 -25q69 -41 107 -41q68 0 100 86l152 -62q-33 -119 -99.5 -176t-142.5 -57q-73 0 -160 49q-43 25 -65.5 34t-46.5 9q-84 0 -133 -104z" /><glyph unicode="&#x2000;" horiz-adv-x="968" /><glyph unicode="&#x2001;" horiz-adv-x="1937" /><glyph unicode="&#x2002;" horiz-adv-x="968" /><glyph unicode="&#x2003;" horiz-adv-x="1937" /><glyph unicode="&#x2004;" horiz-adv-x="645" /><glyph unicode="&#x2005;" horiz-adv-x="484" /><glyph unicode="&#x2006;" horiz-adv-x="322" /><glyph unicode="&#x2007;" horiz-adv-x="322" /><glyph unicode="&#x2008;" horiz-adv-x="242" /><glyph unicode="&#x2009;" horiz-adv-x="387" /><glyph unicode="&#x200a;" horiz-adv-x="107" /><glyph unicode="&#x2010;" horiz-adv-x="575" d="M41 424v219h518l-61 -219h-457z" /><glyph unicode="&#x2011;" horiz-adv-x="575" d="M41 424v219h518l-61 -219h-457z" /><glyph unicode="&#x2012;" horiz-adv-x="575" d="M41 424v219h518l-61 -219h-457z" /><glyph unicode="&#x2013;" horiz-adv-x="1024" d="M29 424v219h989l-62 -219h-927z" /><glyph unicode="&#x2014;" horiz-adv-x="2048" d="M20 424v219h2020l-62 -219h-1958z" /><glyph unicode="&#x2018;" horiz-adv-x="524" d="M106 836v260q0 129 54 223q58 99 211 199l112 -117q-52 -39 -84 -70t-58.5 -77.5t-33.5 -100.5h109v-258z" /><glyph unicode="&#x2019;" horiz-adv-x="524" d="M41 975q52 39 84 70t58.5 77.5t33.5 100.5h-108v258l309 59v-260q0 -131 -53 -223q-58 -99 -211 -199z" /><glyph unicode="&#x201a;" horiz-adv-x="524" d="M41 -248q52 39 84 70t58.5 77.5t33.5 100.5h-108v258l309 59v-260q0 -131 -53 -223q-58 -99 -211 -199z" /><glyph unicode="&#x201c;" horiz-adv-x="1013" d="M106 836v260q0 129 54 223q58 99 211 199l112 -117q-52 -39 -84 -70t-58.5 -77.5t-33.5 -100.5h109v-258zM596 836v260q0 131 53 223q58 99 211 199l113 -117q-52 -39 -84 -70t-58.5 -77.5t-33.5 -100.5h108v-258z" /><glyph unicode="&#x201d;" horiz-adv-x="1013" d="M41 973q52 39 84 70t58.5 77.5t33.5 100.5h-108v258l309 59v-260q0 -131 -53 -223q-58 -99 -211 -199zM530 973q80 60 123.5 115.5t53.5 132.5h-109v258l309 59v-260q0 -131 -53 -223q-58 -99 -211 -199z" /><glyph unicode="&#x201e;" horiz-adv-x="1013" d="M41 -248q52 39 84 70t58.5 77.5t33.5 100.5h-108v258l309 59v-260q0 -131 -53 -223q-58 -99 -211 -199zM530 -248q80 60 123.5 115.5t53.5 132.5h-109v258l309 59v-260q0 -131 -53 -223q-58 -99 -211 -199z" /><glyph unicode="&#x2022;" horiz-adv-x="903" d="M115 598q0 139 97 227t239 88t239.5 -88t97.5 -227t-97.5 -227t-239.5 -88t-239 88t-97 227z" /><glyph unicode="&#x2026;" horiz-adv-x="1474" d="M111 0v244l290 61v-305h-290zM592 0v244l291 61v-305h-291zM1073 0v244l291 61v-305h-291z" /><glyph unicode="&#x202f;" horiz-adv-x="387" /><glyph unicode="&#x2039;" horiz-adv-x="669" d="M45 516l438 434l142 -119l-289 -315l293 -319l-150 -129z" /><glyph unicode="&#x203a;" horiz-adv-x="669" d="M41 197l293 319l-289 315l141 119l439 -434l-435 -448z" /><glyph unicode="&#x205f;" horiz-adv-x="484" /><glyph unicode="&#x20ac;" d="M59 436v189h131q-2 27 -2 57q0 20 2 43h-131v188h158q52 227 223.5 359.5t433.5 132.5q206 0 367 -59l-24 -254q-160 59 -320 59q-149 0 -244 -61t-123 -177h525l-51 -188h-515q-2 -20 -2 -43t5 -57h514l-52 -189h-399q68 -203 348 -203q176 0 322 60l22 -246 q-185 -67 -383 -67q-138 0 -250 34.5t-189 97t-126.5 143.5t-73.5 181h-166z" /><glyph unicode="&#x2122;" horiz-adv-x="1484" d="M16 1233v151h568l-41 -151h-168v-434h-189v434h-170zM633 799v585h278l60 -196q25 -83 43 -164h6q6 28 43 164l55 196h281v-585h-178v381h-9q-48 -178 -77 -265l-27 -86h-180l-27 86q-39 118 -82 265h-8v-381h-178z" /><glyph unicode="&#x25fc;" horiz-adv-x="1064" d="M0 0v1065h1065v-1065h-1065z" /></font>
</defs>
</svg>
